[Arukoru] Kizumonogatari - Part 2 - Nekketsu [1080p x265 10bit BD Eng Sub AAC 5.1]

資源分類:
發布日期:
2019-04-17
文件大小:
1.5GB
Info hash:
9ae4566eb811abbb4cfc9071a51ef68875ef7373

File list

  • [Arukoru] Kizumonogatari - Part 2 - Nekketsu [1080p x265 10bit BD Eng Sub AAC 5.1].mkv(1.5GB)
[![Arukoru-Kizumonogatari-Part-2-Nekketsu-1080p-x265-10bit-B.png](https://i.postimg.cc/NFWL77SK/Arukoru-Kizumonogatari-Part-2-Nekketsu-1080p-x265-10bit-B.png)](https://postimg.cc/D4P27s2h) [![Arukoru-Kizumonogatari-Part-2-Nekketsu-1080p-x265-10bit-B.png](https://i.postimg.cc/bYKQRQQ0/Arukoru-Kizumonogatari-Part-2-Nekketsu-1080p-x265-10bit-B.png)](https://postimg.cc/Lh3Y9gQh) [![Arukoru-Kizumonogatari-Part-2-Nekketsu-1080p-x265-10bit-B.png](https://i.postimg.cc/RVKwpNRk/Arukoru-Kizumonogatari-Part-2-Nekketsu-1080p-x265-10bit-B.png)](https://postimg.cc/Yh24h2TR) Format : Matroska Format version : Version 4 File size : 1.47 GiB Duration : 1 h 8 min Overall bit rate : 3 080 kb/s Encoded date : UTC 2019-02-19 06:01:49 Writing application : mkvmerge v29.0.0 ('Like It Or Not') 64-bit Writing library : libebml v1.3.6 + libmatroska v1.4.9 / Lavf58.20.100 Video ID : 1 Format : HEVC Format/Info : High Efficiency Video Coding Format profile : Main [email protected]@Main Codec ID : V_MPEGH/ISO/HEVC Duration : 1 h 8 min Bit rate : 2 565 kb/s Width : 1 920 pixels Height : 1 080 pixels Display aspect ratio : 16:9 Frame rate mode : Constant Frame rate : 23.976 (24000/1001) FPS Color space : YUV Chroma subsampling : 4:2:0 Bit depth : 10 bits Bits/(Pixel*Frame) : 0.052 Stream size : 1.22 GiB (83%) Writing library : x265 2.9:[Windows][GCC 7.1.0][64 bit] 10bit Encoding settings : cpuid=1111039 / frame-threads=2 / numa-pools=4 / wpp / no-pmode / no-pme / no-psnr / no-ssim / log-level=2 / input-csp=1 / input-res=1920x1080 / interlace=0 / total-frames=0 / level-idc=0 / high-tier=1 / uhd-bd=0 / ref=4 / no-allow-non-conformance / no-repeat-headers / annexb / no-aud / no-hrd / info / hash=0 / no-temporal-layers / open-gop / min-keyint=24 / keyint=240 / gop-lookahead=0 / bframes=4 / b-adapt=2 / b-pyramid / bframe-bias=0 / rc-lookahead=25 / lookahead-slices=4 / scenecut=40 / radl=0 / no-intra-refresh / ctu=64 / min-cu-size=8 / rect / no-amp / max-tu-size=32 / tu-inter-depth=1 / tu-intra-depth=1 / limit-tu=0 / rdoq-level=2 / dynamic-rd=0.00 / no-ssim-rd / signhide / no-tskip / nr-intra=0 / nr-inter=0 / no-constrained-intra / strong-intra-smoothing / max-merge=3 / limit-refs=3 / limit-modes / me=3 / subme=3 / merange=57 / temporal-mvp / weightp / no-weightb / no-analyze-src-pics / deblock=0:0 / sao / no-sao-non-deblock / rd=4 / no-early-skip / rskip / no-fast-intra / no-tskip-fast / no-cu-lossless / no-b-intra / no-splitrd-skip / rdpenalty=0 / psy-rd=2.00 / psy-rdoq=1.00 / no-rd-refine / no-lossless / cbqpoffs=0 / crqpoffs=0 / rc=crf / crf=19.0 / qcomp=0.60 / qpstep=4 / stats-write=0 / stats-read=0 / ipratio=1.40 / pbratio=1.30 / aq-mode=1 / aq-strength=1.00 / cutree / zone-count=0 / no-strict-cbr / qg-size=32 / no-rc-grain / qpmax=69 / qpmin=0 / no-const-vbv / sar=1 / overscan=0 / videoformat=5 / range=0 / colorprim=1 / transfer=1 / colormatrix=1 / chromaloc=0 / display-window=0 / max-cll=0,0 / min-luma=0 / max-luma=1023 / log2-max-poc-lsb=8 / vui-timing-info / vui-hrd-info / slices=1 / no-opt-qp-pps / no-opt-ref-list-length-pps / no-multi-pass-opt-rps / scenecut-bias=0.05 / no-opt-cu-delta-qp / no-aq-motion / no-hdr / no-hdr-opt / no-dhdr10-opt / no-idr-recovery-sei / analysis-reuse-level=5 / scale-factor=0 / refine-intra=0 / refine-inter=0 / refine-mv=0 / no-limit-sao / ctu-info=0 / no-lowpass-dct / refine-mv-type=0 / copy-pic=1 / max-ausize-factor=1.0 / no-dynamic-refine / no-single-sei Default : Yes Forced : No Color range : Limited Color primaries : BT.709 Transfer characteristics : BT.709 Matrix coefficients : BT.709 Audio ID : 3 Format : AAC LC Format/Info : Advanced Audio Codec Low Complexity Codec ID : A_AAC-2 Duration : 1 h 8 min Bit rate : 442 kb/s Channel(s) : 6 channels Channel layout : C L R Ls Rs LFE Sampling rate : 48.0 kHz Frame rate : 46.875 FPS (1024 SPF) Compression mode : Lossy Stream size : 216 MiB (14%) Language : Japanese Default : Yes Forced : No Text ID : 2 Format : PGS Muxing mode : zlib Codec ID : S_HDMV/PGS Codec ID/Info : Picture based subtitle format used on BDs/HD-DVDs Duration : 1 h 7 min Bit rate : 166 kb/s Count of elements : 4262 Stream size : 80.4 MiB (5%) Language : English Default : Yes Forced : Yes Menu 00:00:00.000 : :Chapter 1 00:01:33.176 : :Chapter 2 00:02:48.835 : :Chapter 3 00:06:21.339 : :Chapter 4 00:11:07.709 : :Chapter 5 00:17:54.115 : :Chapter 6 00:21:56.941 : :Chapter 7 00:26:31.465 : :Chapter 8 00:33:49.277 : :Chapter 9 00:44:21.200 : :Chapter 10 00:47:24.175 : :Chapter 11 00:57:15.182 : :Chapter 12 01:01:19.217 : :Chapter 13 01:07:14.030 : :Chapter 14 Source: Kizumonogatari II: Nekketsu-hen (2016) [-ZR-] [BDRip] [HD 1080p]