[NSBC] DASADA E02 [HDTV] [1080p]

資源分類:
發布日期:
2020-01-25
文件大小:
1.6GB
Info hash:
27bb9adef25a9ff3d2ea0db08345540409552d3b

File list

  • DASADA.S01E02.1080p.HDTV.AAC.x264-NSBC.mkv(1.6GB)
![](http://img.topddl.net/images/2020/01/16/mainv-pc.jpg "") ![](http://img.topddl.net/images/2020/01/25/DASADA.S01E02.1080p.HDTV.AAC.x264-NSBC.mkv.jpg "") ``` General Unique ID : 68873747581945668207315254578617735563 (0x33D099EDD0B86D2CB492A14050AF598B) Complete name : DASADA.S01E02.1080p.HDTV.AAC.x264-NSBC.mkv Format : Matroska Format version : Version 4 File size : 1.63 GiB Duration : 22 min 59 s Overall bit rate : 10.2 Mb/s Movie name : DASADA.S01E02.1080p.HDTV.AAC.x264-NSBC Encoded by : NoNe | NSBC Encoded date : UTC 2020-01-24 21:44:28 Writing application : mkvmerge v31.0.0 ('Dolores In A Shoestand') 64-bit Writing library : libebml v1.3.6 + libmatroska v1.4.9 Copyright : NSBC Comment : NoNe | NSBC DATE_RECORDED : 2020 NOTICE ME : SENPAI WEBSITE : NSBC.to Video ID : 1 Format : AVC Format/Info : Advanced Video Codec Format profile : [email protected] Format settings : CABAC / 9 Ref Frames Format settings, CABAC : Yes Format settings, Reference frames : 9 frames Codec ID : V_MPEG4/ISO/AVC Duration : 22 min 59 s Bit rate : 9 908 kb/s Width : 1 920 pixels Height : 1 080 pixels Display aspect ratio : 16:9 Frame rate mode : Constant Frame rate : 29.970 (30000/1001) FPS Color space : YUV Chroma subsampling : 4:2:0 Bit depth : 8 bits Scan type : Progressive Bits/(Pixel*Frame) : 0.159 Stream size : 1.59 GiB (97%) Title : [NSBC] Writing library : x264 core 152 r2854 e9a5903 Encoding settings : cabac=1 / ref=9 / deblock=1:0:0 / analyse=0x3:0x113 / me=hex / subme=7 / psy=1 / psy_rd=1.00:0.00 / mixed_ref=1 / me_range=16 / chroma_me=1 / trellis=1 / 8x8dct=1 / cqm=0 / deadzone=21,11 / fast_pskip=1 / chroma_qp_offset=-2 / threads=1 / lookahead_threads=1 / sliced_threads=0 / nr=0 / decimate=1 / interlaced=0 / bluray_compat=0 / constrained_intra=0 / bframes=3 / b_pyramid=2 / b_adapt=1 / b_bias=0 / direct=1 / weightb=1 / open_gop=0 / weightp=2 / keyint=250 / keyint_min=25 / scenecut=40 / intra_refresh=0 / rc_lookahead=40 / rc=crf / mbtree=1 / crf=18.0 / qcomp=0.60 / qpmin=0 / qpmax=69 / qpstep=4 / ip_ratio=1.40 / aq=1:1.00 Default : Yes Forced : No Audio ID : 2 Format : AAC LC Format/Info : Advanced Audio Codec Low Complexity Codec ID : A_AAC-2 Duration : 22 min 59 s Bit rate : 253 kb/s Channel(s) : 2 channels Channel layout : L R Sampling rate : 48.0 kHz Frame rate : 46.875 FPS (1024 SPF) Compression mode : Lossy Stream size : 41.6 MiB (2%) Title : [NSBC] Language : Japanese Default : Yes Forced : No ```